<?xml version="1.0" standalone="no"?><!DOCTYPE svg PUBLIC "-//W3C//DTD SVG 1.1//EN" "http://www.w3.org/Graphics/SVG/1.1/DTD/svg11.dtd" ><svg version="1.1" xmlns="http://www.w3.org/2000/svg"><defs><font horiz-adv-x="0" id="font"><font-face ascent="750" bbox="-19 -214 582 833" cap-height="681" descent="-250" font-family="BilboINC" font-stretch="condensed" font-style="normal" font-weight="400" units-per-em="1000" x-height="528" /><missing-glyph horiz-adv-x="200" /><glyph glyph-name=".null" horiz-adv-x="0" /><glyph d="M214 140 158 84 101 140 84 0H15L90 613H39V681H276V613H225L303 0H231ZM112 221 158 176 204 221 158 596Z" glyph-name="A" horiz-adv-x="318" unicode="A" /><glyph d="M448 613H299V346L368 414L416 365L299 249V68H448V0H230V197L167 136L132 176L84 0H10L169 613H106V681H448ZM170 225 230 289V590L145 259Z" glyph-name="AE" horiz-adv-x="478" unicode="&#198;" /><glyph d="M228 140 172 84 115 140 98 0H29L104 613H53V681H290V613H239L317 0H245ZM126 221 172 176 218 221 172 596ZM164 701 126 743 210 830 263 773Z" glyph-name="Aacute" horiz-adv-x="351" unicode="&#193;" /><glyph d="M228 140 172 84 115 140 98 0H29L104 613H53V681H290V613H239L317 0H245ZM126 221 172 176 218 221 172 596ZM263 747 221 701 172 752 118 701 79 745 172 833Z" glyph-name="Acircumflex" horiz-adv-x="351" unicode="&#194;" /><glyph d="M228 140 172 84 115 140 98 0H29L104 613H53V681H290V613H239L317 0H245ZM126 221 172 176 218 221 172 596ZM292 774 236 718 179 774 236 830ZM166 774 110 718 53 774 110 830Z" glyph-name="Adieresis" horiz-adv-x="351" unicode="&#196;" /><glyph d="M228 140 172 84 115 140 98 0H29L104 613H53V681H290V613H239L317 0H245ZM126 221 172 176 218 221 172 596ZM81 773 134 830 218 743 180 701Z" glyph-name="Agrave" horiz-adv-x="351" unicode="&#192;" /><glyph d="M228 140 172 84 115 140 98 0H29L104 613H53V681H290V613H239L317 0H245ZM126 221 172 176 218 221 172 596ZM290 781Q277 768 272.5 763.5Q268 759 260 754Q248.5 745 236.5 740.5Q224.5 736 212 736Q202.5 736 191.25 740Q180 744 167 752Q154 760 147.5 762.5Q141 765 133 765Q124.5 765 113 757.5Q101.5 750 87 735L55 781Q78 809 94.5 819.5Q111 830 128 830Q136 830 143.5 828Q151 826 163 820Q187 806 195.5 803Q204 800 213 800Q224 800 234 806Q244 812 258 828L290 781Z" glyph-name="Atilde" horiz-adv-x="351" unicode="&#195;" /><glyph d="M50 0V681H160Q184 681 206.5 676Q229 671 246 657.5Q263 644 273.5 621Q284 598 284 561V421L210 348L284 272V129Q284 77 269 50.5Q254 24 233 12.5Q212 1 190 0.5Q168 0 153 0ZM120 349 214 443V548Q214 569 210 582Q206 595 199 601.5Q192 608 182.5 610.5Q173 613 163 613H120ZM120 68H167Q171 68 179 70Q187 72 194.5 78.5Q202 85 208 97.5Q214 110 214 131V252L165 301L120 257Z" glyph-name="B" horiz-adv-x="320" unicode="B" /><glyph d="M278 97 179 0H144L40 103V592Q40 613 41.5 630Q43 647 49 658Q55 669 68.5 675Q82 681 106 681H263V538H196V613H114V129L162 77L230 145Z" glyph-name="C" horiz-adv-x="287" unicode="C" /><glyph d="M226 -73 173 -25 84 -130 121 -162ZM284 97 185 0H150L46 103V592Q46 613 47.5 630Q49 647 55 658Q61 669 74.5 675Q88 681 112 681H269V538H202V613H120V129L168 77L236 145Z" glyph-name="Ccedilla" horiz-adv-x="320" unicode="&#199;" /><glyph d="M50 680H181Q231 680 260.5 646Q290 612 290 551V120L171 0H50ZM220 524Q220 557 214.5 575Q209 593 199 601Q189 609 174.5 610.5Q160 612 143 612H120V68H141L220 147Z" glyph-name="D" horiz-adv-x="328" unicode="D" /><glyph d="M263 613H114V346L183 414L231 365L114 249V68H263V0H45V680H263Z" glyph-name="E" horiz-adv-x="278" unicode="E" /><glyph d="M146 701 108 743 192 830 245 773ZM268 613H119V346L188 414L236 365L119 249V68H268V0H50V680H268Z" glyph-name="Eacute" horiz-adv-x="293" unicode="&#201;" /><glyph d="M265 747 223 701 174 752 120 701 81 745 174 833ZM283 613H134V346L203 414L251 365L134 249V68H283V0H65V680H283Z" glyph-name="Ecircumflex" horiz-adv-x="322" unicode="&#202;" /><glyph d="M263 613H114V346L183 414L231 365L114 249V68H263V0H45V680H263ZM274 774 218 718 161 774 218 830ZM148 774 92 718 35 774 92 830Z" glyph-name="Edieresis" horiz-adv-x="283" unicode="&#203;" /><glyph d="M82 773 135 830 219 743 181 701ZM268 613H119V346L188 414L236 365L119 249V68H268V0H50V680H268Z" glyph-name="Egrave" horiz-adv-x="293" unicode="&#200;" /><glyph d="M37 419H71V575Q72 632 103 661Q134 690 189 690Q210 690 229.5 682.5Q249 675 264 661Q279 647 288 625.5Q297 604 297 576V487H224V570Q224 602 215 612Q206 622 188 622Q175 622 166.5 618.5Q158 615 153.5 605.5Q149 596 147 579.5Q145 563 145 537V419H285L253 351H145V317H246L218 249H146L145 139Q145 113 146.5 97.5Q148 82 153.5 73.5Q159 65 167.5 62.5Q176 60 189 60Q207 60 216 70.5Q225 81 225 113V195H298V106Q298 78 289 56.5Q280 35 265 21Q250 7 230.5 -0.5Q211 -8 190 -8Q135 -8 103.5 21Q72 50 72 107V249H8L37 317H71V351H14Z" glyph-name="Euro" horiz-adv-x="319" unicode="&#8364;" /><glyph d="M119 346 188 414 236 365 119 249V0H50V681H268V613H119Z" glyph-name="F" horiz-adv-x="283" unicode="F" /><glyph d="M119 613V89L220 191V291H170V359H287V0H220V100L119 0H50L51 580Q51 602 52 620.5Q53 639 60 652.5Q67 666 82.5 673.5Q98 681 126 681H283V538H215V613Z" glyph-name="G" horiz-adv-x="322" unicode="G" /><glyph d="M308 681V0H238V354L181 294L120 354V0H50V681H120V446L181 386L238 446V681Z" glyph-name="H" horiz-adv-x="358" unicode="H" /><glyph d="M135 681V0H64V609ZM101 830 158 774 101 718 45 774Z" glyph-name="I" horiz-adv-x="203" unicode="I" /><glyph d="M126 681V0H55V681ZM-2 773 51 830 135 743 97 701Z" glyph-name="Iacute" horiz-adv-x="183" unicode="&#205;" /><glyph d="M135 681V0H64V681ZM192 747 150 701 101 752 47 701 8 745 101 833Z" glyph-name="Icircumflex" horiz-adv-x="203" unicode="&#206;" /><glyph d="M135 681V0H64V681ZM220 774 164 718 107 774 164 830ZM94 774 38 718 -19 774 38 830Z" glyph-name="Idieresis" horiz-adv-x="203" unicode="&#207;" /><glyph d="M135 681V0H64V681ZM88 701 50 743 134 830 187 773Z" glyph-name="Igrave" horiz-adv-x="203" unicode="&#204;" /><glyph d="M166 0H136L20 116L66 162L151 78L198 124L197 613H92V421H23V682H268L269 102Z" glyph-name="J" horiz-adv-x="313" unicode="J" /><glyph d="M120 680V344L215 439V680H287V416L204 332L285 251V0H215V229L156 288L119 249V0H51L50 680Z" glyph-name="K" horiz-adv-x="331" unicode="K" /><glyph d="M120 681V68H252V0H50V681Z" glyph-name="L" horiz-adv-x="254" unicode="L" /><glyph d="M132 277V68H264V0H62V277H40V343H62V681H132V343H216V277Z" glyph-name="Lslash" horiz-adv-x="266" unicode="&#321;" /><glyph d="M213 589 122 493V0H50L52 681H122V588L213 681H285V580L388 681H460V0H388V589L285 493V0H213Z" glyph-name="M" horiz-adv-x="509" unicode="M" /><glyph d="M122 574V0H50V681H122L220 572V680H292V0H220V469Z" glyph-name="N" horiz-adv-x="342" unicode="N" /><glyph d="M122 509V0H50V696Q50 696 52.5 693.5Q55 691 70.5 674.5Q86 658 119 622.5Q152 587 213 522V682H285V-2H213V413Z" glyph-name="N3" horiz-adv-x="335" /><glyph d="M122 94V0H50V681H122V188L213 88V682H285V-2H213Z" glyph-name="Nbas" horiz-adv-x="335" /><glyph d="M108 575V0H36V681H108L206 573V681H278V0H206V470ZM276 781Q263 768 258.5 763.5Q254 759 246 754Q234.5 745 222.5 740.5Q210.5 736 198 736Q188.5 736 177.25 740Q166 744 153 752Q140 760 133.5 762.5Q127 765 119 765Q110.5 765 99 757.5Q87.5 750 73 735L41 781Q64 809 80.5 819.5Q97 830 114 830Q122 830 129.5 828Q137 826 149 820Q173 806 181.5 803Q190 800 199 800Q210 800 220 806Q230 812 244 828Z" glyph-name="Ntilde" horiz-adv-x="315" unicode="&#209;" /><glyph d="M281 681V613H211L280 556L281 126Q281 54 250 23.5Q219 -7 165 -7Q142 -7 121 0.5Q100 8 83 23.5Q66 39 56 64.5Q46 90 46 126V559L112 613H45V681ZM121 126Q121 91 132.5 76Q144 61 165 61Q186 61 195 76Q204 91 204 126L203 527L162 562Q161 562 154.5 557Q148 552 140.5 545.5Q133 539 126.5 533Q120 527 120 527Z" glyph-name="O" horiz-adv-x="326" unicode="O" /><glyph d="M429 613H280V346L349 414L397 365L280 249V69H429V0H217Q207 -3 195.5 -5Q184 -7 171 -7Q148 -7 127 0.5Q106 8 89 23.5Q72 39 62 64.5Q52 90 52 126V559L110 613H51V646V681H429ZM127 126Q127 91 138.5 76Q150 61 171 61Q187.5 61 197.25 71.75Q207 82.5 210 104L211 613Q211 614 198 600.5Q185 587 169 571Q153 555 139.5 541Q126 527 126 527Z" glyph-name="OE" horiz-adv-x="455" unicode="&#338;" /><glyph d="M158 701 120 743 204 830 257 773ZM287 681V613H217L286 556L287 126Q287 54 256 23.5Q225 -7 171 -7Q148 -7 127 0.5Q106 8 89 23.5Q72 39 62 64.5Q52 90 52 126V559L118 613H51V681ZM127 126Q127 91 138.5 76Q150 61 171 61Q192 61 201 76Q210 91 210 126L209 527L168 562Q167 562 160.5 557Q154 552 146.5 545.5Q139 539 132.5 533Q126 527 126 527Z" glyph-name="Oacute" horiz-adv-x="337" unicode="&#211;" /><glyph d="M287 681V613H217L286 556L287 126Q287 54 256 23.5Q225 -7 171 -7Q148 -7 127 0.5Q106 8 89 23.5Q72 39 62 64.5Q52 90 52 126V559L118 613H51V681ZM127 126Q127 91 138.5 76Q150 61 171 61Q192 61 201 76Q210 91 210 126L209 527L168 562Q167 562 160.5 557Q154 552 146.5 545.5Q139 539 132.5 533Q126 527 126 527ZM261 747 219 701 170 752 116 701 77 745 170 833Z" glyph-name="Ocircumflex" horiz-adv-x="337" unicode="&#212;" /><glyph d="M260 774 204 718 147 774 204 830ZM134 774 78 718 21 774 78 830ZM259 681V613H189L258 556L259 126Q259 54 228 23.5Q197 -7 143 -7Q120 -7 99 0.5Q78 8 61 23.5Q44 39 34 64.5Q24 90 24 126V559L90 613H23V681ZM99 126Q99 91 110.5 76Q122 61 143 61Q164 61 173 76Q182 91 182 126L181 527L140 562Q139 562 132.5 557Q126 552 118.5 545.5Q111 539 104.5 533Q98 527 98 527Z" glyph-name="Odieresis" horiz-adv-x="321" unicode="&#214;" /><glyph d="M70 773 123 830 207 743 169 701ZM287 681V613H217L286 556L287 126Q287 54 256 23.5Q225 -7 171 -7Q148 -7 127 0.5Q106 8 89 23.5Q72 39 62 64.5Q52 90 52 126V559L118 613H51V681ZM127 126Q127 91 138.5 76Q150 61 171 61Q192 61 201 76Q210 91 210 126L209 527L168 562Q167 562 160.5 557Q154 552 146.5 545.5Q139 539 132.5 533Q126 527 126 527Z" glyph-name="Ograve" horiz-adv-x="337" unicode="&#210;" /><glyph d="M44 119V556L102 613H43V645V679Q43 679 53 679.5Q63 680 79.5 680Q96 680 117.5 680Q139 680 161 680Q187 680 216.5 679.75Q246 679.5 279 679V613H216L273 560L301 612L325 596L278 507L279 126Q279 54 248 23.5Q217 -7 163 -7Q127 -7 95.5 11.5Q64 30 51 74L15 6L-7 21ZM201 361 118 203 119 126Q119 91 130.5 76Q142 61 163 61Q184 61 193 76Q202 91 202 126ZM118 262 201 421V527L160 567Q154 561.5 148.75 556.5Q143.5 551.5 139 547L125 533Q123 531 121.25 529.5Q119.5 528 118 527Z" glyph-name="Oslash" horiz-adv-x="321" unicode="&#216;" /><glyph d="M276 781Q263 768 258.5 763.5Q254 759 246 754Q234.5 745 222.5 740.5Q210.5 736 198 736Q188.5 736 177.25 740Q166 744 153 752Q140 760 133.5 762.5Q127 765 119 765Q110.5 765 99 757.5Q87.5 750 73 735L41 781Q64 809 80.5 819.5Q97 830 114 830Q122 830 129.5 828Q137 826 149 820Q173 806 181.5 803Q190 800 199 800Q210 800 220 806Q230 812 244 828L276 781ZM271 681V0H201V117L100 0H32V580Q32 601 33 619.5Q34 638 41 651.5Q48 665 63 673Q78 681 106 681ZM201 613H100V96L201 216Z" glyph-name="Otilde" horiz-adv-x="339" unicode="&#213;" /><glyph d="M118 249 120 0H50V682H164Q188 682 210.5 677Q233 672 250 658.5Q267 645 277.5 621.5Q288 598 288 561V416ZM120 345 216 441V551Q216 572 212 584.5Q208 597 201 603Q194 609 184.5 611Q175 613 165 613H120Z" glyph-name="P" horiz-adv-x="305" unicode="P" /><glyph d="M201 -18V-97H127V-18L46 63V559L112 613H45V681H281V613H211L280 556V61ZM203 91Q203 91 203 114Q203 137 203 173.5Q203 210 203 257Q203 304 203 352Q203 400 203 446Q203 492 203 527L162 565Q161 566 154.5 560Q148 554 140.5 547Q133 540 126.5 533.5Q120 527 120 527V91L162 49Q165 51 171.5 58Q178 65 185 72Q192 79 197.5 85Q203 91 203 91Z" glyph-name="Q" horiz-adv-x="326" unicode="Q" /><glyph d="M214 239 164 292 120 250V0H50V680H168Q192 680 213.5 675Q235 670 251 657Q267 644 276.5 621Q286 598 286 561V412L214 340L286 266V0H214ZM122 342 219 439V550Q219 571 215 583.5Q211 596 204 602.5Q197 609 187.5 611Q178 613 168 613H122Z" glyph-name="R" horiz-adv-x="326" unicode="R" /><glyph d="M156 690Q188 690 209.5 680Q231 670 244 655.5Q257 641 262.5 623.5Q268 606 268 591V453H197V582Q197 603 185.5 614.5Q174 626 155 626Q136 626 123.5 613.5Q111 601 111 581V452L268 299V102Q268 85 260.5 66Q253 47 238.5 31Q224 15 202.5 5Q181 -5 153 -5Q124 -5 103 5Q82 15 68 30.5Q54 46 47 65Q40 84 40 102V277H111V113Q111 92 125.5 78.5Q140 65 153 65Q170 65 183.5 79.5Q197 94 197 114V263L40 412V591Q40 606 46.5 623.5Q53 641 67.5 656Q82 671 104 680.5Q126 690 156 690Z" glyph-name="S" horiz-adv-x="308" unicode="S" /><glyph d="M10 682H242V613H165V0H94V613H10Z" glyph-name="T" horiz-adv-x="252" unicode="T" /><glyph d="M515 681V0H444V114L387 55L327 114V0H256V613H160V0H89V613H-17V682L327 681V211Q335 203 344.5 193Q354 183 364 173Q369.5 167.5 375.25 161.75Q381 156 387 150L444 212V681Z" glyph-name="Th" horiz-adv-x="559" /><glyph d="M47 680H118V142Q118 94 127 77.5Q136 61 164 61Q192 61 202 77.5Q212 94 213 142V431V680H282V104Q282 86 276 66Q270 46 256.5 29Q243 12 220 1Q197 -10 164 -10Q128 -10 105.5 1Q83 12 70 28.5Q57 45 52 65.5Q47 86 47 104Z" glyph-name="U" horiz-adv-x="329" unicode="U" /><glyph d="M143 701 105 743 189 830 242 773ZM47 680H118V142Q118 94 127 77.5Q136 61 164 61Q192 61 202 77.5Q212 94 213 142V431V680H282V104Q282 86 276 66Q270 46 256.5 29Q243 12 220 1Q197 -10 164 -10Q128 -10 105.5 1Q83 12 70 28.5Q57 45 52 65.5Q47 86 47 104Z" glyph-name="Uacute" horiz-adv-x="339" unicode="&#218;" /><glyph d="M259 747 217 701 168 752 114 701 75 745 168 833ZM47 680H118V142Q118 94 127 77.5Q136 61 164 61Q192 61 202 77.5Q212 94 213 142V431V680H282V104Q282 86 276 66Q270 46 256.5 29Q243 12 220 1Q197 -10 164 -10Q128 -10 105.5 1Q83 12 70 28.5Q57 45 52 65.5Q47 86 47 104Z" glyph-name="Ucircumflex" horiz-adv-x="339" unicode="&#219;" /><glyph d="M288 774 232 718 175 774 232 830ZM162 774 106 718 49 774 106 830ZM47 680H118V142Q118 94 127 77.5Q136 61 164 61Q192 61 202 77.5Q212 94 213 142V431V680H282V104Q282 86 276 66Q270 46 256.5 29Q243 12 220 1Q197 -10 164 -10Q128 -10 105.5 1Q83 12 70 28.5Q57 45 52 65.5Q47 86 47 104Z" glyph-name="Udieresis" horiz-adv-x="328" unicode="&#220;" /><glyph d="M75 773 128 830 212 743 174 701ZM47 680H118V142Q118 94 127 77.5Q136 61 164 61Q192 61 202 77.5Q212 94 213 142V431V680H282V104Q282 86 276 66Q270 46 256.5 29Q243 12 220 1Q197 -10 164 -10Q128 -10 105.5 1Q83 12 70 28.5Q57 45 52 65.5Q47 86 47 104Z" glyph-name="Ugrave" horiz-adv-x="339" unicode="&#217;" /><glyph d="M111 680V146L160 97L210 146V680H281V111L160 0L45 111V680Z" glyph-name="V" horiz-adv-x="326" unicode="V" /><glyph d="M116 682V148L160 101L213 148L211 682H284V148L332 99L381 148L379 682H449V114L332 0L249 83L160 0L45 112V682Z" glyph-name="W" horiz-adv-x="495" unicode="W" /><glyph d="M116 680V419L162 374L207 419V680H283V395L207 322L283 250V0H207V224L160 271L116 224V0H45V250L116 322L45 395V680Z" glyph-name="X" horiz-adv-x="328" unicode="X" /><glyph d="M100 680V433L148 386L194 433V680H263V410L184 329V0H114V329L30 411V680Z" glyph-name="Y" horiz-adv-x="293" unicode="Y" /><glyph d="M115 701 77 743 161 830 214 773ZM100 680V433L148 386L194 433V680H263V410L184 329V0H114V329L30 411V680Z" glyph-name="Yacute" horiz-adv-x="321" unicode="&#221;" /><glyph d="M268 774 212 718 155 774 212 830ZM142 774 86 718 29 774 86 830ZM106 680 108 196 151 152 193 196 191 680H267L269 170L194 96L192 0H106L108 96L34 170L32 680Z" glyph-name="Ydieresis" horiz-adv-x="293" unicode="&#376;" /><glyph d="M188 184H258V0H45V270L180 405V613H109V492H40V680H248V382L114 247V68H188Z" glyph-name="Z" horiz-adv-x="298" unicode="Z" /><glyph d="M286 681V0H216V117L115 0H47V580Q47 601 48 619.5Q49 638 56 651.5Q63 665 78 673Q93 681 121 681ZM216 613H115V96L216 216Z" glyph-name="a" horiz-adv-x="334" unicode="a" /><glyph d="M133 701 95 743 179 830 232 773ZM286 681V0H216V117L115 0H47V580Q47 601 48 619.5Q49 638 56 651.5Q63 665 78 673Q93 681 121 681ZM216 613H115V96L216 216Z" glyph-name="aacute" horiz-adv-x="336" unicode="&#225;" /><glyph d="M266 747 224 701 175 752 121 701 82 745 175 833ZM295 681V0H225V117L124 0H56V580Q56 601 57 619.5Q58 638 65 651.5Q72 665 87 673Q102 681 130 681ZM225 613H124V96L225 216Z" glyph-name="acircumflex" horiz-adv-x="336" unicode="&#226;" /><glyph d="M69 701 31 743 115 830 168 773Z" glyph-name="acute" horiz-adv-x="233" unicode="&#180;" /><glyph d="M295 774 239 718 182 774 239 830ZM169 774 113 718 56 774 113 830ZM296 681V0H226V117L125 0H57V580Q57 601 58 619.5Q59 638 66 651.5Q73 665 88 673Q103 681 131 681ZM226 613H125V96L226 216Z" glyph-name="adieresis" horiz-adv-x="351" unicode="&#228;" /><glyph d="M438 613H289V278L358 346L406 297L289 181V68H438V0H219V117L118 0H50V580Q50 601 51 619.5Q52 638 59 651.5Q66 665 81 673Q96 681 124 681H438ZM219 613H118V96L219 216Z" glyph-name="ae" horiz-adv-x="468" unicode="&#230;" /><glyph d="M95 773 148 830 232 743 194 701ZM291 681V0H221V117L120 0H52V580Q52 601 53 619.5Q54 638 61 651.5Q68 665 83 673Q98 681 126 681ZM221 613H120V96L221 216Z" glyph-name="agrave" horiz-adv-x="336" unicode="&#224;" /><glyph d="M56 421V556Q56 575 60 596.5Q64 618 77 637Q90 656 114.5 668.5Q139 681 179 681Q219 681 242 668.5Q265 656 276.5 637.5Q288 619 291 597Q294 575 294 556V421L221 348L334 219L371 301L430 272L386 173Q400.5 155 413.5 139.25Q426.5 123.5 438 110Q458 86 474 66.5Q490 47 491 47L441 0L350 108Q337 87 322.5 68Q308 49 290 34Q272 19 249 10Q226 1 198 1Q127 1 91 33Q55 65 55 116V273Q55 274 56 275Q57 276 64 283Q71 290 86.5 305Q102 320 130 348ZM126 247V149Q126 126 129 111Q132 96 140 86.5Q148 77 162 73Q176 69 198 69Q221 69 239.5 83.5Q258 98 272 116Q280 126.5 287 138.5Q294 150.5 300 164L180 300L140 260Q136 256 132.5 252.75Q129 249.5 126 247ZM178 393 221 443V552Q221 589 210.5 602Q200 615 175 615Q145 615 137 598Q129 581 129 552L128 443Z" glyph-name="ampersand" horiz-adv-x="470" unicode="&amp;" /><glyph d="M289 671 251 633 179 695 108 633 70 671 179 780Z" glyph-name="asciicircum" horiz-adv-x="348" unicode="^" /><glyph d="M276 300Q263 287 258.5 282.5Q254 278 246 273Q234.5 264 222.5 259.5Q210.5 255 198 255Q188.5 255 177.25 259Q166 263 153 271Q140 279 133.5 281.5Q127 284 119 284Q110.5 284 99 276.5Q87.5 269 73 254L40 306Q63 334 79.5 344.5Q96 355 113 355Q121 355 128.5 353Q136 351 148 345Q172 331 180.5 328Q189 325 198 325Q209 325 219 331Q229 337 243 353L276 300Z" glyph-name="asciitilde" horiz-adv-x="295" unicode="~" /><glyph d="M219 761V640Q243 655 269.5 672.5Q296 690 319 704L350 655L244 595L350 537L319 487L219 548L223 431H162L166 551L67 488L35 537L137 595L36 648L63 701L166 641L162 761Z" glyph-name="asterisk" horiz-adv-x="385" unicode="*" /><glyph d="M117 60Q121 60 145.5 60Q170 60 197.5 60Q225 60 247 60Q269 60 269 60V-18H147Q126 -18 108 -17Q90 -16 76.5 -10Q63 -4 55.5 8Q48 20 48 43Q48 66 48 112.5Q48 159 48.5 216Q49 273 49 335Q49 397 49.5 452Q50 507 50 548.5Q50 590 50 605Q50 654 73.5 677.5Q97 701 140 701H468Q496 701 511.5 696.5Q527 692 534 681.5Q541 671 542 654Q543 637 543 613V161Q543 137 534.5 118.5Q526 100 514 87.5Q502 75 488 69Q474 63 463 63H413Q394 63 381 70Q368 77 360 87Q352 97 348.5 108.5Q345 120 345 128V237L244 120H176V458Q176 479 177 497.5Q178 516 185 529.5Q192 543 207 551Q222 559 250 559H415V135Q427 134 437.5 134.5Q448 135 456 138.5Q464 142 469 150.5Q474 159 474 174V628H170Q137 628 127.5 618Q118 608 118 583ZM345 491H244V216L345 336Z" glyph-name="at" horiz-adv-x="583" unicode="@" /><glyph d="M294 781Q281 768 276.5 763.5Q272 759 264 754Q252.5 745 240.5 740.5Q228.5 736 216 736Q206.5 736 195.25 740Q184 744 171 752Q158 760 151.5 762.5Q145 765 137 765Q128.5 765 117 757.5Q105.5 750 91 735L59 781Q82 809 98.5 819.5Q115 830 132 830Q140 830 147.5 828Q155 826 167 820Q191 806 199.5 803Q208 800 217 800Q228 800 238 806Q248 812 262 828L294 781ZM290 681V0H220V117L119 0H51V580Q51 601 52 619.5Q53 638 60 651.5Q67 665 82 673Q97 681 125 681ZM220 613H119V96L220 216Z" glyph-name="atilde" horiz-adv-x="336" unicode="&#227;" /><glyph d="M50 0V681H160Q184 681 206.5 676Q229 671 246 657.5Q263 644 273.5 621Q284 598 284 561V421L210 348L284 272V129Q284 77 269 50.5Q254 24 233 12.5Q212 1 190 0.5Q168 0 153 0ZM120 349 214 443V548Q214 569 210 582Q206 595 199 601.5Q192 608 182.5 610.5Q173 613 163 613H120ZM120 68H167Q171 68 179 70Q187 72 194.5 78.5Q202 85 208 97.5Q214 110 214 131V252L165 301L120 257Z" glyph-name="b" horiz-adv-x="320" unicode="b" /><glyph d="M336 0H257L12 682H87Z" glyph-name="backslash" horiz-adv-x="346" unicode="\" /><glyph d="M154 786V-214H90V786Z" glyph-name="bar" horiz-adv-x="253" unicode="|" /><glyph d="M216 681Q204 681 197 680Q190 679 185.5 676.5Q181 674 178.5 670.5Q176 667 172 662Q166 653 164 639Q162 625 162 593V469Q162 428 159.5 408Q157 388 150 373Q145 361 140.5 353Q136 345 121 333Q148 310 155 285Q162 260 162 217V66Q162 54.5 164 44.75Q166 35 170 27Q173 20 176 15.5Q179 11 184 8Q189 5 198 4Q207 3 221 3H234V-62H222Q211 -62 206.5 -62Q202 -62 197 -61Q175 -60 160 -52.5Q145 -45 131 -32Q109 -11 100.5 21Q92 53 92 114V219Q92 238 89 253Q86 268 79 280.5Q72 293 61.5 305.5Q51 318 36 333Q48 346 58.5 356.5Q69 367 76.5 380Q84 393 88 411Q92 429 92 459V571Q92 606 91.5 631.5Q91 657 99 676Q114 712 140 728.5Q166 745 220 745H234V681Z" glyph-name="braceleft" horiz-adv-x="279" unicode="{" /><glyph d="M35 681V745H49Q103 745 129 728.5Q155 712 170 676Q178 657 177.5 631.5Q177 606 177 571V459Q177 429 181 411Q185 393 192.5 380Q200 367 210.5 356.5Q221 346 233 333Q218 318 207.5 305.5Q197 293 190 280.5Q183 268 180 253Q177 238 177 219V114Q177 53 168.5 21Q160 -11 138 -32Q124 -45 109 -52.5Q94 -60 72 -61Q67 -62 62.5 -62Q58 -62 47 -62H35V3H48Q76 3 84.5 8Q93 13 99 27Q103 35 105 44.75Q107 54.5 107 66V217Q107 260 114 285Q121 310 148 333Q133 345 128.5 353Q124 361 119 373Q111 388 109 408Q107 428 107 469V593Q107 625 105 639Q103 653 97 662Q93 667 90.5 670.5Q88 674 83.5 676.5Q79 679 72 680Q65 681 53 681Z" glyph-name="braceright" horiz-adv-x="269" unicode="}" /><glyph d="M53 -73V757H224V681H125V0H224V-73Z" glyph-name="bracketleft" horiz-adv-x="242" unicode="[" /><glyph d="M29 -73V0H128V681H29V757H200V-73Z" glyph-name="bracketright" horiz-adv-x="235" unicode="]" /><glyph d="M287 312 163 188 37 312 163 436Z" glyph-name="bullet" horiz-adv-x="324" unicode="&#8226;" /><glyph d="M206 527Q246 527 282 511.5Q318 496 344 469.5Q370 443 385.5 407Q401 371 401 331Q401 291 385.5 255.5Q370 220 344 193.5Q318 167 282 151.5Q246 136 206 136Q165 136 129.5 151.5Q94 167 68 193.5Q42 220 26.5 255.5Q11 291 11 331Q11 371 26.5 407Q42 443 68 469.5Q94 496 129.5 511.5Q165 527 206 527ZM372 336Q380 338 381.5 345Q383 352 382 358Q378 386 366.5 408.5Q355 431 341.5 446Q328 461 316 469Q304 477 298 477Q288 476 284.5 470Q281 464 281 459Q281 454 285.5 450Q290 446 292 444Q316 428 330.25 404.5Q344.5 381 349 350Q351 340 357.5 337Q364 334 372 336Z" glyph-name="bulletbomb" horiz-adv-x="415" /><glyph d="M278 97 179 0H144L40 103V592Q40 613 41.5 630Q43 647 49 658Q55 669 68.5 675Q82 681 106 681H263V538H196V613H114V129L162 77L230 145Z" glyph-name="c" horiz-adv-x="293" unicode="c" /><glyph d="M213 -73 160 -25 71 -130 108 -162ZM282 97 183 0H148L44 103V592Q44 613 45.5 630Q47 647 53 658Q59 669 72.5 675Q86 681 110 681H267V538H200V613H118V129L166 77L234 145Z" glyph-name="ccedilla" horiz-adv-x="302" unicode="&#231;" /><glyph d="M265 747 223 701 174 752 120 701 81 745 174 833Z" glyph-name="circumflex" horiz-adv-x="342" unicode="&#710;" /><glyph d="M82 221 139 165 82 109 26 165ZM82 445 139 389 82 333 26 389Z" glyph-name="colon" horiz-adv-x="164" unicode=":" /><glyph d="M61 -75 10 -57 71 131 141 109Z" glyph-name="comma" horiz-adv-x="151" unicode="," /><glyph d="M50 680H181Q231 680 260.5 646Q290 612 290 551V120L171 0H50ZM220 524Q220 557 214.5 575Q209 593 199 601Q189 609 174.5 610.5Q160 612 143 612H120V68H141L220 147Z" glyph-name="d" horiz-adv-x="328" unicode="d" /><glyph d="M208 544V-59H136V544H25V614H136V786H208V614H315V544Z" glyph-name="dagger" horiz-adv-x="341" unicode="&#8224;" /><glyph d="M208 399V-59H136V399H25V469H136V544H25V614H136V786H208V614H315V544H208V469H315V399Z" glyph-name="daggerdbl" horiz-adv-x="340" unicode="&#8225;" /><glyph d="M260 774 204 718 147 774 204 830ZM134 774 78 718 21 774 78 830Z" glyph-name="dieresis" horiz-adv-x="292" unicode="&#168;" /><glyph d="M210 220 267 164 210 108 154 164ZM210 524 267 468 210 412 154 468ZM37 347H389V277H37Z" glyph-name="divide" horiz-adv-x="417" unicode="&#247;" /><glyph d="M186 749V687Q209 682 224.5 671.5Q240 661 250 647.5Q260 634 264 619Q268 604 268 591V453H197V582Q197 603 185.5 614.5Q174 626 155 626Q136 626 123.5 613.5Q111 601 111 581V452L268 299V102Q268 91 262.5 76Q257 61 246.5 46.5Q236 32 221 19Q206 6 186 0V-55H122V-1Q80 8 60.5 38.5Q41 69 41 102V277H111V211L112 113Q112 93 125 80.5Q138 68 150 67H153Q170 67 183.5 80.5Q197 94 197 114V263L40 412V448Q40 468 40.5 502.5Q41 537 41 591Q41 604 45.5 618.5Q50 633 60 646.5Q70 660 85.5 670.5Q101 681 122 686V749Z" glyph-name="dollar" horiz-adv-x="308" unicode="$" /><glyph d="M263 613H114V220L183 288L231 239L114 123V68H263V0H45V680H263Z" glyph-name="e" horiz-adv-x="278" unicode="e" /><glyph d="M245 613H96V220L165 288L213 239L96 123V68H245V0H27V681H245ZM118 701 80 743 164 830 217 773Z" glyph-name="eacute" horiz-adv-x="266" unicode="&#233;" /><glyph d="M245 681H27V0H245V68H96V123L213 239L165 288L96 220V613H245ZM224 747 182 701 133 752 79 701 40 745 133 833Z" glyph-name="ecircumflex" horiz-adv-x="266" unicode="&#234;" /><glyph d="M245 681H27V0H245V68H96V123L213 239L165 288L96 220V613H245ZM255 774 199 718 142 774 199 830ZM129 774 73 718 16 774 73 830Z" glyph-name="edieresis" horiz-adv-x="266" unicode="&#235;" /><glyph d="M245 681H27V0H245V68H96V123L213 239L165 288L96 220V613H245ZM33 773 86 830 170 743 132 701Z" glyph-name="egrave" horiz-adv-x="266" unicode="&#232;" /><glyph d="M49 603Q49 618 54.5 634Q60 650 72 662.5Q84 675 104 683Q124 691 154 691Q184 691 204.5 683Q225 675 237.5 662.5Q250 650 255 634Q260 618 260 603V391L220 345L258 296V88Q258 73 253 56Q248 39 236 24.5Q224 10 204 1Q184 -8 154 -8Q122 -8 101.5 1.5Q81 11 69 25Q57 39 52 56Q47 73 47 88V297L89 345L49 391ZM119 95Q119 79 126 67.5Q133 56 152 56Q171 56 179 68Q187 80 187 95Q187 103 186.5 130.5Q186 158 186 190V271L154 311L119 271ZM188 415V494Q188 525 188.5 552.5Q189 580 189 588Q189 603 181 615Q173 627 154 627Q135 627 128 615.5Q121 604 121 588V415L154 376Z" glyph-name="eight" horiz-adv-x="307" unicode="8" /><glyph d="M81 102 138 46 81 -10 25 46ZM244 102 301 46 244 -10 188 46ZM407 102 464 46 407 -10 351 46Z" glyph-name="ellipsis" horiz-adv-x="489" unicode="&#8230;" /><glyph d="M34 346H515V276H34Z" glyph-name="emdash" horiz-adv-x="550" unicode="&#8212;" /><glyph d="M34 346H386V276H34Z" glyph-name="endash" horiz-adv-x="421" unicode="&#8211;" /><glyph d="M62 276H366V206H62ZM62 415H366V345H62Z" glyph-name="equal" horiz-adv-x="425" unicode="=" /><glyph d="M71 160V716H144V160ZM107 3 50 59 107 115 163 59Z" glyph-name="exclam" horiz-adv-x="213" unicode="!" /><glyph d="M144 530V-26H71V530ZM163 631 107 575 50 631 107 687Z" glyph-name="exclamdown" horiz-adv-x="213" unicode="&#161;" /><glyph d="M119 214 188 282 236 233 119 117V0H50V681H268V613H119Z" glyph-name="f" horiz-adv-x="283" unicode="f" /><glyph d="M329 457 378 504 416 457 328 372 327 0H258V303L120 167L119 0H50V681H496V613H330ZM121 252 258 388V613H122Z" glyph-name="ff" horiz-adv-x="469" unicode="&#64256;" /><glyph d="M332 384 401 452 449 403 332 287V0H263V227L119 84V0H50V681H503L523 701L580 645L523 589L499 613H332ZM119 181 263 324V613H119ZM557 550V0H486V550Z" glyph-name="ffi" horiz-adv-x="609" unicode="&#64259;" /><glyph d="M119 346 188 414 236 365 119 249V0H50V681H305L325 701L382 645L325 589L301 613H119ZM359 550V0H288V550Z" glyph-name="fi" horiz-adv-x="420" unicode="&#64257;" /><glyph d="M182 614H117V362Q157 341 183 327.5Q209 314 223.5 306Q238 298 243.5 295Q249 292 249 292V91Q249 63 240.5 44Q232 25 218 13.5Q204 2 186 -3Q168 -8 148 -8Q128 -8 110 -3Q92 2 78 14.5Q64 27 56 48Q48 69 48 101V196H117V95Q117 81 125 70.5Q133 60 148 60Q159 60 171 67.5Q183 75 183 95V249L48 319V681H249V447H182Z" glyph-name="five" horiz-adv-x="291" unicode="5" /><glyph d="M119 214 188 282 236 233 119 117V0H50V681H337V68H469V0H267V613H119Z" glyph-name="fl" horiz-adv-x="471" unicode="&#64258;" /><glyph d="M119 214 188 282 236 233 119 117V0H50V681H268V613H119Z" glyph-name="florin" horiz-adv-x="283" unicode="&#402;" /><glyph d="M242 686V211H288V142H242V0H170V142H36L17 194L170 686ZM170 211V480L94 211Z" glyph-name="four" horiz-adv-x="318" unicode="4" /><glyph d="M261 682H336L91 0H12Z" glyph-name="fraction" horiz-adv-x="348" unicode="&#8260;" /><glyph d="M48 680H188Q230 680 257 657.5Q284 635 284 587V420H213V551Q213 578 206 591Q199 604 189.5 609.5Q180 615 170.5 614.5Q161 614 155 614H117V130L170 80L217 130V291H168V358L286 359V98L187 0H152L48 104Z" glyph-name="g" horiz-adv-x="326" unicode="g" /><glyph d="M31 773 84 830 168 743 130 701Z" glyph-name="grave" horiz-adv-x="237" unicode="`" /><glyph d="M374 279 55 102 24 163 283 311 24 457 58 519 374 343Z" glyph-name="greater" horiz-adv-x="415" unicode="&gt;" /><glyph d="M156 153 34 370 154 578 209 540 104 365 209 189ZM278 153 156 370 276 578 331 540 226 365 331 189Z" glyph-name="guillemotleft" horiz-adv-x="351" unicode="&#171;" /><glyph d="M156 189 261 365 156 540 211 578 331 370 209 153ZM34 189 139 365 34 540 89 578 209 370 87 153Z" glyph-name="guillemotright" horiz-adv-x="354" unicode="&#187;" /><glyph d="M309 683V1H238V115L181 56L121 115V1H50V683H121V212Q129 204 138.5 194Q148 184 158 174Q163.5 168.5 169.25 162.75Q175 157 181 151L238 213V683Z" glyph-name="h" horiz-adv-x="359" unicode="h" /><glyph d="M35 276V346H201V276Z" glyph-name="hyphen" horiz-adv-x="236" unicode="-" /><glyph d="M135 681V0H64V681ZM101 830 158 774 101 718 45 774Z" glyph-name="i" horiz-adv-x="203" unicode="i" /><glyph d="M135 681V0H64V681ZM88 701 50 743 134 830 187 773Z" glyph-name="iacute" horiz-adv-x="203" unicode="&#237;" /><glyph d="M135 681V0H64V681ZM192 747 150 701 101 752 47 701 8 745 101 833Z" glyph-name="icircumflex" horiz-adv-x="203" unicode="&#238;" /><glyph d="M135 681V0H64V681ZM220 774 164 718 107 774 164 830ZM94 774 38 718 -19 774 38 830Z" glyph-name="idieresis" horiz-adv-x="203" unicode="&#239;" /><glyph d="M126 681V0H55V681ZM-2 773 51 830 135 743 97 701Z" glyph-name="igrave" horiz-adv-x="183" unicode="&#236;" /><glyph d="M166 0H136L20 116L66 162L151 78L198 124L197 613H92V484H23V682H268L269 102Z" glyph-name="j" horiz-adv-x="309" unicode="j" /><glyph d="M120 680V218L215 313V680H285V288L204 206L285 125V0H215V103L156 161L120 125V0H51L50 680Z" glyph-name="k" horiz-adv-x="329" unicode="k" /><glyph d="M120 681V68H252V0H50V681Z" glyph-name="l" horiz-adv-x="254" unicode="l" /><glyph d="M41 343 357 519 391 457 132 311 391 163 360 102 41 279Z" glyph-name="less" horiz-adv-x="415" unicode="&lt;" /><glyph d="M132 277V68H264V0H62V277H40V343H62V681H132V343H216V277Z" glyph-name="lslash" horiz-adv-x="266" unicode="&#322;" /><glyph d="M45 0V580L164 702L249 616L331 702L449 584V0H379V562L332 608L281 557V0H211V562L165 608L115 557V0Z" glyph-name="m" horiz-adv-x="491" unicode="m" /><glyph d="M33 346H337V276H33Z" glyph-name="minus" horiz-adv-x="375" unicode="&#8722;" /><glyph d="M352 415 251 314 350 214 301 165 201 264 103 166 53 216 152 314 52 414 101 463 201 363 302 464Z" glyph-name="multiply" horiz-adv-x="407" unicode="&#215;" /><glyph d="M120 465V0H50V681H120V564L221 681H291V0H221V585Z" glyph-name="n" horiz-adv-x="341" unicode="n" /><glyph d="M103 195V116Q103 91 111 74.5Q119 58 142 58Q160.5 58 169.75 72.5Q179 87 179 116V317Q138 338 111 351.5Q84 365 67 373Q50 381 42.5 384Q35 387 35 387V582Q35 616 47 637.5Q59 659 75.5 671Q92 683 110.5 687Q129 691 142 691Q157 691 175.5 687Q194 683 210 671.5Q226 660 236.5 638.5Q247 617 247 582V101Q247 72 237.5 51Q228 30 212.5 17Q197 4 178.5 -2Q160 -8 142 -8Q123 -8 104 -2.5Q85 3 69.5 15.5Q54 28 44.5 49Q35 70 35 101V195ZM107 430 178 395V565Q178 600 169.5 611.5Q161 623 142 623Q129 623 122 617.5Q115 612 111.5 603.5Q108 595 107.5 585Q107 575 107 565Z" glyph-name="nine" horiz-adv-x="288" unicode="9" /><glyph glyph-name="nonmarkingreturn" horiz-adv-x="200" /><glyph d="M106 468V0H36V681H106V567L207 681H277V0H207V588ZM276 781Q263 768 258.5 763.5Q254 759 246 754Q234.5 745 222.5 740.5Q210.5 736 198 736Q188.5 736 177.25 740Q166 744 153 752Q140 760 133.5 762.5Q127 765 119 765Q110.5 765 99 757.5Q87.5 750 73 735L41 781Q64 809 80.5 819.5Q97 830 114 830Q122 830 129.5 828Q137 826 149 820Q173 806 181.5 803Q190 800 199 800Q210 800 220 806Q230 812 244 828Z" glyph-name="ntilde" horiz-adv-x="325" unicode="&#241;" /><glyph d="M281 554V127Q281 55 249.5 24.5Q218 -6 164 -6Q141 -6 120 1.5Q99 9 82 24.5Q65 40 55 65.5Q45 91 45 127V196H46Q46 227 46 265Q46 303 45.5 342Q45 381 45 418.5Q45 456 45 485V554Q45 590 55 615.5Q65 641 82 656.5Q99 672 120 679.5Q141 687 164 687Q218 687 249.5 656.5Q281 626 281 554ZM206 557Q206 592 195.5 605.5Q185 619 164 619Q143 619 131.5 604Q120 589 120 554V127Q120 92 131.5 77Q143 62 164 62Q185 62 195.5 75.5Q206 89 206 124Z" glyph-name="o" horiz-adv-x="326" unicode="o" /><glyph d="M120 701 82 743 166 830 219 773ZM281 554V127Q281 55 249.5 24.5Q218 -6 164 -6Q141 -6 120 1.5Q99 9 82 24.5Q65 40 55 65.5Q45 91 45 127V196H46Q46 227 46 265Q46 303 45.5 342Q45 381 45 418.5Q45 456 45 485V554Q45 590 55 615.5Q65 641 82 656.5Q99 672 120 679.5Q141 687 164 687Q218 687 249.5 656.5Q281 626 281 554ZM206 557Q206 592 195.5 605.5Q185 619 164 619Q143 619 131.5 604Q120 589 120 554V127Q120 92 131.5 77Q143 62 164 62Q185 62 195.5 75.5Q206 89 206 124Z" glyph-name="oacute" horiz-adv-x="321" unicode="&#243;" /><glyph d="M254 747 212 701 163 752 109 701 70 745 163 833ZM281 554V127Q281 55 249.5 24.5Q218 -6 164 -6Q141 -6 120 1.5Q99 9 82 24.5Q65 40 55 65.5Q45 91 45 127V196H46Q46 227 46 265Q46 303 45.5 342Q45 381 45 418.5Q45 456 45 485V554Q45 590 55 615.5Q65 641 82 656.5Q99 672 120 679.5Q141 687 164 687Q218 687 249.5 656.5Q281 626 281 554ZM206 557Q206 592 195.5 605.5Q185 619 164 619Q143 619 131.5 604Q120 589 120 554V127Q120 92 131.5 77Q143 62 164 62Q185 62 195.5 75.5Q206 89 206 124Z" glyph-name="ocircumflex" horiz-adv-x="321" unicode="&#244;" /><glyph d="M282 774 226 718 169 774 226 830ZM156 774 100 718 43 774 100 830ZM281 554V127Q281 55 249.5 24.5Q218 -6 164 -6Q141 -6 120 1.5Q99 9 82 24.5Q65 40 55 65.5Q45 91 45 127V196H46Q46 227 46 265Q46 303 45.5 342Q45 381 45 418.5Q45 456 45 485V554Q45 590 55 615.5Q65 641 82 656.5Q99 672 120 679.5Q141 687 164 687Q218 687 249.5 656.5Q281 626 281 554ZM206 557Q206 592 195.5 605.5Q185 619 164 619Q143 619 131.5 604Q120 589 120 554V127Q120 92 131.5 77Q143 62 164 62Q185 62 195.5 75.5Q206 89 206 124Z" glyph-name="odieresis" horiz-adv-x="321" unicode="&#246;" /><glyph d="M429 613H280V346L349 414L397 365L280 249V69H429V0H217Q207 -3 195.5 -5Q184 -7 171 -7Q148 -7 127 0.5Q106 8 89 23.5Q72 39 62 64.5Q52 90 52 126V559L110 613H51V646V681H429ZM127 126Q127 91 138.5 76Q150 61 171 61Q187.5 61 197.25 71.75Q207 82.5 210 104L211 613Q211 614 198 600.5Q185 587 169 571Q153 555 139.5 541Q126 527 126 527Z" glyph-name="oe" horiz-adv-x="454" unicode="&#339;" /><glyph d="M77 773 130 830 214 743 176 701ZM281 554V127Q281 55 249.5 24.5Q218 -6 164 -6Q141 -6 120 1.5Q99 9 82 24.5Q65 40 55 65.5Q45 91 45 127V196H46Q46 227 46 265Q46 303 45.5 342Q45 381 45 418.5Q45 456 45 485V554Q45 590 55 615.5Q65 641 82 656.5Q99 672 120 679.5Q141 687 164 687Q218 687 249.5 656.5Q281 626 281 554ZM206 557Q206 592 195.5 605.5Q185 619 164 619Q143 619 131.5 604Q120 589 120 554V127Q120 92 131.5 77Q143 62 164 62Q185 62 195.5 75.5Q206 89 206 124Z" glyph-name="ograve" horiz-adv-x="321" unicode="&#242;" /><glyph d="M123 683 124 0H50L51 683Z" glyph-name="one" horiz-adv-x="174" unicode="1" /><glyph d="M55 119V556L113 613H54V645V679Q54 679 64 679.5Q74 680 90.5 680Q107 680 128.5 680Q150 680 172 680Q198 680 227.5 679.75Q257 679.5 290 679V613H227L284 560L312 612L336 596L289 507L290 126Q290 54 259 23.5Q228 -7 174 -7Q138 -7 106.5 11.5Q75 30 62 74L26 6L4 21ZM212 361 129 203 130 126Q130 91 141.5 76Q153 61 174 61Q195 61 204 76Q213 91 213 126ZM129 262 212 421V527L171 567Q165 561.5 159.75 556.5Q154.5 551.5 150 547L136 533Q134 531 132.25 529.5Q130.5 528 129 527Z" glyph-name="oslash" horiz-adv-x="349" unicode="&#248;" /><glyph d="M281 781Q268 768 263.5 763.5Q259 759 251 754Q239.5 745 227.5 740.5Q215.5 736 203 736Q193.5 736 182.25 740Q171 744 158 752Q145 760 138.5 762.5Q132 765 124 765Q115.5 765 104 757.5Q92.5 750 78 735L46 781Q69 809 85.5 819.5Q102 830 119 830Q127 830 134.5 828Q142 826 154 820Q178 806 186.5 803Q195 800 204 800Q215 800 225 806Q235 812 249 828L281 781ZM281 554V127Q281 55 249.5 24.5Q218 -6 164 -6Q141 -6 120 1.5Q99 9 82 24.5Q65 40 55 65.5Q45 91 45 127V196H46Q46 227 46 265Q46 303 45.5 342Q45 381 45 418.5Q45 456 45 485V554Q45 590 55 615.5Q65 641 82 656.5Q99 672 120 679.5Q141 687 164 687Q218 687 249.5 656.5Q281 626 281 554ZM206 557Q206 592 195.5 605.5Q185 619 164 619Q143 619 131.5 604Q120 589 120 554V127Q120 92 131.5 77Q143 62 164 62Q185 62 195.5 75.5Q206 89 206 124Z" glyph-name="otilde" horiz-adv-x="321" unicode="&#245;" /><glyph d="M120 124V0H50V680H164Q188 680 210.5 675Q233 670 250 656.5Q267 643 277.5 620Q288 597 288 560V289ZM120 219 216 311V551Q216 572 212 584.5Q208 597 201 603Q194 609 184.5 611Q175 613 165 613H120Z" glyph-name="p" horiz-adv-x="310" unicode="p" /><glyph d="M132 -17Q115 34 103.5 78.5Q92 123 84.5 166.5Q77 210 73 254Q69 298 68 348Q69 399 73 444.5Q77 490 84 533.5Q91 577 102.5 620.5Q114 664 132 710L202 693Q187 641 176 599.5Q165 558 157 519Q149 480 145 440Q141 400 141 351Q141 301 145 260Q149 219 156.5 178.5Q164 138 175.5 95Q187 52 202 0Z" glyph-name="parenleft" horiz-adv-x="239" unicode="(" /><glyph d="M34 0Q49 52 60.5 95Q72 138 79.5 178.5Q87 219 91 260Q95 301 95 351Q95 400 91 440Q87 480 79 519Q71 558 60 599.5Q49 641 34 693L104 710Q122 664 133.5 620.5Q145 577 152 533.5Q159 490 162.5 444.5Q166 399 168 348Q166 298 162.5 254Q159 210 151.5 166.5Q144 123 132.5 78.5Q121 34 104 -17Z" glyph-name="parenright" horiz-adv-x="205" unicode=")" /><glyph d="M81 102 138 46 81 -10 25 46Z" glyph-name="period" horiz-adv-x="163" unicode="." /><glyph d="M224 490V347H343V277H224V138H154V277H40V347H154V490Z" glyph-name="plus" horiz-adv-x="383" unicode="+" /><glyph d="M248 490V347H367V277H248V138H178V277H64V347H178V490ZM63 70H367V0H63Z" glyph-name="plusminus" horiz-adv-x="432" unicode="&#177;" /><glyph d="M219 -5 283 -72 232 -123 84 27 48 62V63L47 64L48 65L47 550Q47 622 78 652.5Q109 683 163 683Q185 683 206.5 675.5Q228 668 245 652.5Q262 637 272 611.5Q282 586 282 550V61ZM166 48Q166 49 172 55.5Q178 62 186 70Q194 78 201 84.5Q208 91 208 91Q208 91 208 122Q208 153 208 200Q208 247 208 303.5Q208 360 207.5 411Q207 462 207 500Q207 538 207 550Q207 585 195.5 600Q184 615 163 615Q142 615 133 600Q124 585 124 550L125 91Z" glyph-name="q" horiz-adv-x="323" unicode="q" /><glyph d="M171 688Q225 688 252.5 666.5Q280 645 280 595L279 380L187 290V167H111V317L202 405V572Q202 591 200 601Q198 611 193 615.5Q188 620 180 621Q172 622 160 622Q145 622 136 620Q127 618 123 612Q119 606 118 596Q117 586 117 571V516H40V586Q40 613 44.5 632.5Q49 652 63 664.5Q77 677 103 682.5Q129 688 171 688ZM150 110 207 54 150 -2 94 54Z" glyph-name="question" horiz-adv-x="320" unicode="?" /><glyph d="M154.0103 -1.9587Q100.0135 -1.9587 72.5151 19.54Q45.0168 41.0387 45.0168 91.0357L46.0167 306.0228L138.0112 396.0174V519.01H214.0067V369.019L123.0121 281.0243V114.0343Q123.0121 95.0355 125.012 85.0361Q127.0119 75.0367 132.0116 70.5369Q137.0113 66.0372 145.0108 65.0373Q153.0103 64.0373 165.0096 64.0373Q180.0087 64.0373 189.0082 66.0372Q198.0076 68.0371 202.0074 74.0367Q206.0071 80.0364 207.0071 90.0358Q208.007 100.0352 208.007 115.0343V170.031H285.0024V100.0352Q285.0024 73.0368 280.5027 53.5379Q276.0029 34.0391 262.0038 21.5399Q248.0046 9.0406 222.0062 3.5409Q196.0077 -1.9587 154.0103 -1.9587ZM175.009 576.0066 118.0124 632.0032 175.009 687.9999 231.0056 632.0032Z" glyph-name="questiondown" horiz-adv-x="320" unicode="&#191;" /><glyph d="M70 -75 19 -57 80 131 150 109ZM165 -75 114 -57 175 131 245 109Z" glyph-name="quotedblbase" horiz-adv-x="274" unicode="&#8222;" /><glyph d="M90 763 144 748 90 524 17 548ZM199 763 253 748 199 524 126 548Z" glyph-name="quotedblleft" horiz-adv-x="271" unicode="&#8220;" /><glyph d="M117 576V-2H50V681H117L229 553V554L348 681H414V-2H348V576L229 449Z" glyph-name="quotedblleft.001" horiz-adv-x="464" /><glyph d="M180 524 126 539 180 763 253 739ZM71 524 17 539 71 763 144 739Z" glyph-name="quotedblright" horiz-adv-x="273" unicode="&#8221;" /><glyph d="M90 763 144 748 90 524 17 548Z" glyph-name="quoteleft" horiz-adv-x="166" unicode="&#8216;" /><glyph d="M71 524 17 539 71 763 144 739Z" glyph-name="quoteright" horiz-adv-x="157" unicode="&#8217;" /><glyph d="M76 -141 22 -126 76 98 149 74Z" glyph-name="quotesinglbase" horiz-adv-x="192" unicode="&#8218;" /><glyph d="M69 557 18 575 79 763 149 741Z" glyph-name="quotesingle" horiz-adv-x="170" unicode="'" /><glyph d="M213 116 163 167 120 125V0H50V681H167Q191 681 212.5 676Q234 671 250 657.5Q266 644 275.5 621Q285 598 285 561V289L213 216L285 143V0H213ZM120 219 213 311V548Q213 590 200 601.5Q187 613 167 613H120Z" glyph-name="r" horiz-adv-x="325" unicode="r" /><glyph d="M156 690Q188 690 209.5 680Q231 670 244 655.5Q257 641 262.5 623.5Q268 606 268 591V453H197V582Q197 603 185.5 614.5Q174 626 155 626Q136 626 123.5 613.5Q111 601 111 581V452L268 299V102Q268 85 260.5 66Q253 47 238.5 31Q224 15 202.5 5Q181 -5 153 -5Q124 -5 103 5Q82 15 68 30.5Q54 46 47 65Q40 84 40 102V277H111V113Q111 92 125.5 78.5Q140 65 153 65Q170 65 183.5 79.5Q197 94 197 114V263L40 412V591Q40 606 46.5 623.5Q53 641 67.5 656Q82 671 104 680.5Q126 690 156 690Z" glyph-name="s" horiz-adv-x="308" unicode="s" /><glyph d="M160 445 217 389 160 333 104 389ZM120 -75 69 -57 130 131 200 109Z" glyph-name="semicolon" horiz-adv-x="307" unicode=";" /><glyph d="M91 0 136 233H40V299H149L180 454V611H107V453H40V682H251V446L221 299H268V233H208L161 0Z" glyph-name="seven" horiz-adv-x="297" unicode="7" /><glyph d="M195 449V560Q195 592 188.5 605.5Q182 619 161 619Q142 619 133 607Q124 595 124 565V362Q164 341 191.5 327.5Q219 314 236 306Q253 298 260.5 295Q268 292 268 292V98Q268 64 256 43Q244 22 227.5 11Q211 0 192.5 -4Q174 -8 161 -8Q146 -8 126.5 -2.5Q107 3 90 15Q73 27 61.5 47.5Q50 68 50 98V587Q50 619 61.5 639Q73 659 90 669.5Q107 680 126.5 683.5Q146 687 161 687Q174 687 192.5 684Q211 681 227.5 670.5Q244 660 256 640Q268 620 268 587V449ZM124 283V116Q124 88 133.25 74Q142.5 60 161 60Q180 60 187.5 76.5Q195 93 195 116V249Z" glyph-name="six" horiz-adv-x="313" unicode="6" /><glyph d="M261 682H336L91 0H12Z" glyph-name="slash" horiz-adv-x="348" unicode="/" /><glyph glyph-name="space" horiz-adv-x="200" unicode="&#160;" /><glyph d="M15 682H247V613H170V0H99V613H15Z" glyph-name="t" horiz-adv-x="262" unicode="t" /><glyph d="M83 376H145L175 414Q175 435.5 175.25 455.25Q175.5 475 176 493Q176 524 176.5 552Q177 580 177 588Q177 603 169 615Q161 627 142 627Q123 627 116 615.5Q109 604 109 588V474H40V603Q40 618 45.5 634Q51 650 63 662.5Q75 675 94.5 683Q114 691 142 691Q172 691 192 683Q212 675 224 662.5Q236 650 241 634Q246 618 246 603V391L208 343L246 296V88Q246 73 241 56Q236 39 223.5 24.5Q211 10 190.5 1Q170 -8 140 -8Q111 -8 92 1Q73 10 61.5 24.5Q50 39 45 56Q40 73 40 88V213H107V95Q107 79 114 67.5Q121 56 140 56Q159 56 167 68Q175 80 175 95Q175 103 174.5 131Q174 159 174 191V272L147 303H83Z" glyph-name="three" horiz-adv-x="295" unicode="3" /><glyph d="M276 781Q263 768 258.5 763.5Q254 759 246 754Q234.5 745 222.5 740.5Q210.5 736 198 736Q188.5 736 177.25 740Q166 744 153 752Q140 760 133.5 762.5Q127 765 119 765Q110.5 765 99 757.5Q87.5 750 73 735L41 781Q64 809 80.5 819.5Q97 830 114 830Q122 830 129.5 828Q137 826 149 820Q173 806 181.5 803Q190 800 199 800Q210 800 220 806Q230 812 244 828L276 781Z" glyph-name="tilde" horiz-adv-x="308" unicode="&#732;" /><glyph d="M129 254V77H199V189H270V0H58V284L180 415V584Q180 599 174.5 611Q169 623 150 623Q131 623 124 611.5Q117 600 117 584V478H45V592Q45 607 50.5 624Q56 641 68 655Q80 669 100 678Q120 687 150 687Q180 687 200 678.5Q220 670 232 656.5Q244 643 248.5 626.5Q253 610 253 595V391Z" glyph-name="two" horiz-adv-x="315" unicode="2" /><glyph d="M221 216V681H291V0H221V117L120 0H50V681H120V96Z" glyph-name="u" horiz-adv-x="336" unicode="u" /><glyph d="M222 216V681H292V0H222V117L121 0H51V681H121V96ZM151 701 113 743 197 830 250 773Z" glyph-name="uacute" horiz-adv-x="336" unicode="&#250;" /><glyph d="M222 216V681H292V0H222V117L121 0H51V681H121V96ZM262 747 220 701 171 752 117 701 78 745 171 833Z" glyph-name="ucircumflex" horiz-adv-x="328" unicode="&#251;" /><glyph d="M222 216V681H292V0H222V117L121 0H51V681H121V96ZM290 774 234 718 177 774 234 830ZM164 774 108 718 51 774 108 830Z" glyph-name="udieresis" horiz-adv-x="328" unicode="&#252;" /><glyph d="M222 216V681H292V0H222V117L121 0H51V681H121V96ZM67 773 120 830 204 743 166 701Z" glyph-name="ugrave" horiz-adv-x="328" unicode="&#249;" /><glyph d="M50 0H582V-63H50Z" glyph-name="underscore" horiz-adv-x="632" unicode="_" /><glyph d="M111 680V146L160 97L210 146V680H281V111L160 0L45 111V680Z" glyph-name="v" horiz-adv-x="326" unicode="v" /><glyph d="M287 90 390 196V681H462V177L287 -2L215 -1V99L112 -1V1H40V681H112V90L215 186V681H287Z" glyph-name="w" horiz-adv-x="494" unicode="w" /><glyph d="M116 680V419L162 374L207 419V680H283V395L207 322L283 250V0H207V224L160 271L116 224V0H45V250L116 322L45 395V680Z" glyph-name="x" horiz-adv-x="328" unicode="x" /><glyph d="M119 680 121 196 164 152 206 196 204 680H280L282 170L207 96L205 0H119L121 96L47 170L45 680Z" glyph-name="y" horiz-adv-x="327" unicode="y" /><glyph d="M119 681 121 196 164 152 206 196 204 681H280L282 170L207 96L205 0H119L121 96L47 170L45 681ZM148 701 110 743 194 830 247 773Z" glyph-name="yacute" horiz-adv-x="327" unicode="&#253;" /><glyph d="M45 681 47 170 121 96 119 0H205L207 96L282 170L280 681H204L206 196L164 152L121 196L119 681ZM283 774 227 718 170 774 227 830ZM157 774 101 718 44 774 101 830Z" glyph-name="ydieresis" horiz-adv-x="327" unicode="&#255;" /><glyph d="M188 184H258V0H45V270L180 405V613H109V492H40V680H248V382L114 247V68H188Z" glyph-name="z" horiz-adv-x="298" unicode="z" /><glyph d="M283 560V126Q283 54 251.5 24Q220 -6 166 -6Q143 -6 122 1Q101 8 84 24Q67 40 57 65Q47 90 47 126V560Q47 596 57 620.5Q67 645 84 659.5Q101 674 122 680.5Q143 687 166 687Q220 687 251.5 659.5Q283 632 283 560ZM208 557Q208 592 197.5 605.5Q187 619 166 619Q145 619 133.5 605.5Q122 592 122 557V124Q122 89 133.5 75.5Q145 62 166 62Q187 62 197.5 75.5Q208 89 208 124Z" glyph-name="zero" horiz-adv-x="330" unicode="0" /></font>
</defs>
</svg>
